NASA zverejnila 8K video z ISS v úžasných detailoch!

, Autor: Martin Klokner

Vesmírna agentúra NASA zverejnila video, ktoré nahrali profesionálnou 8K videokamerou RED Helium.

Používateľom tak v natívnom 8K rozlíšení (8192×4320 pixelov) približuje v trojminútovom videu zábery zo stanice ISS. Používatelia, ktorí majú 8K monitory, alebo televízory si tak môžu naplno vychutnať doteraz najlepšie detaily z ISS.

Iste, zatiaľ nie je 8K rozlíšenie a ani 8K videá bežné a ide skôr o ojedinelú záležitosť. Je však veľmi dobré vedieť, že sa aj vedci postupne modernizujú a používajú stále lepšie vybavenie. Predpokladáme, že toto video by veľmi dobre vyzeralo napríklad na najnovších QLED 8K televízoroch, ktoré sa aj u nás dostali nedávno do predaja.

Doplnené: Video v natívnom 8K rozlíšení si možno pozrieť aj priamo na stránke NASA.

Zdroj: dpreview, diyphotography, vlastné

 

Kľúčové slová
8K, 8K video, NASA, Ultra HD
Po kliknutí na vybrané kľúčové slovo sa vám automaticky zobrazia všetky súvisiace články na pc.sk

Re: NASA zverejnila 8K video z ISS v úžasných detailoch!

Pocet pouzivatelov s 8K monitorov na Slovensku: asi tak 5 (1x SAV, 1x neurcena atomka, 1x neurcene spickove zdravotnicke centrum a 2x neurceny sukromny subjekt)...

Pocet pouzivatelov s 8K TV na Slovensku: asi tak 23 a pol ...

5/6 ludi ma full HD telky (niektori dokonca len HD ready) a iba zbytok 1/6 je ten, co plochu skatulu kupovali za posl. 3 roky a iba cast z nich kupila 4K

A v principe naco je niekomu uplne beznemu pošukovi dnes v 2018 na Slovensku 4K TV? Co na nom akoze bude pozerat? Jedine: vlastny 4K obsah, alebo neviem si existuje nejaka streamovacia sluzba so 4K obsahom (nemyslim tym propagacne videjka ze ano ...) ... aaaaa este tych 217 a pol filmov co su prerobene pre 4K BR-XL ... to vsak chce BR-XL prehravac a celu aparaturu vratane DRM, aby si clovek ozaj mohol prehrat ten 4K film z blurejka v HEVC kodeku, v 10 bit farebnej hlbke HDR, 2020 farebnom priestore, 8 kanalovom zvuku Advanced DTS ....

Takze na Slovesnku je dost malo ludi, ktori si toto 8K video na svojich monitoroch pozru v plnej krase :)

A ked si vezmes, ze z tych 5/6 ludi mozno 2 % videli skutocne 1080p video a nie domrvene, kockate ripy, pripadne HD vysielanie. Potom sa mozeme bavit o uhloprieckach, PPI a pozorovacej vzdialenosti tych "8K" TV.
Pokrok je super, ale toto sa trochu vymyka zdravemu rozumu.

A po nakupe vsetkej tej intergalaktickej aparatury, ktoru si spominal, zaplaces, ze 10-rocna plazma stale vyzera lepsie.

irelevantne... podstatne je, ze na i7 4790 to nejde prehrat, lebo to ide tak 5fps, kolega ma ryzen1700x a tomu to ide rychlejsie ale seka to. Dnes je na svete malo pocitacov, ktore toto video prehraju. Youtube ma nejaky iny kodek alebo co, to mi prehrat ide, procak 98% obcas zasekava, 4K procak 10% uplne plynule a rozdiel v obraze na 4K monitore nevidim. Zbytocnost cele 8K video.

edit: aha v clanku nieje spomenute, ze video uploadli aj na ytb, ale da sa stiahnut z nasa stranky https://images.nasa.gov/details-First-8K-Video-from-Space.html povodne, ktore je daleko narocnejsie ako verzia na ytb.

Re: NASA zverejnila 8K video z ISS v úžasných detailoch!

General
Complete name : First-8K-Video-from-Space~orig.mp4
Format : MPEG-4
Format profile : Base Media / Version 2
Codec ID : mp42 (mp42/mp41)
File size : 3.05 GiB
Duration : 3 min 9 s
Overall bit rate mode : Variable
Overall bit rate : 139 Mb/s
Encoded date : UTC 2018-10-30 23:45:37
Tagged date : UTC 2018-10-30 23:47:47
TIM : 00:00:00:00
TSC : 24000
TSZ : 1001

Video
ID : 1
Format : HEVC
Format/Info : High Efficiency Video Coding
Format profile : Main@L6.2@Main
Codec ID : hvc1
Codec ID/Info : High Efficiency Video Coding
Duration : 3 min 9 s
Bit rate : 138 Mb/s
Width : 8 192 pixels
Height : 4 096 pixels
Display aspect ratio : 2.000
Frame rate mode : Constant
Frame rate : 23.976 (24000/1001) FPS
Color space : YUV
Chroma subsampling : 4:2:0
Bit depth : 8 bits
Bits/(Pixel*Frame) : 0.172
Stream size : 3.05 GiB (100%)
Language : English
Encoded date : UTC 2018-10-30 23:45:37
Tagged date : UTC 2018-10-30 23:45:37
Color range : Full
Color primaries : BT.709
Transfer characteristics : BT.709
Matrix coefficients : BT.709
Codec configuration box : hvcC

Audio
ID : 2
Format : AAC LC
Format/Info : Advanced Audio Codec Low Complexity
Codec ID : mp4a-40-2
Duration : 3 min 9 s
Source duration : 3 min 9 s
Bit rate mode : Variable
Bit rate : 317 kb/s
Maximum bit rate : 399 kb/s
Channel(s) : 2 channels
Channel layout : L R
Sampling rate : 48.0 kHz
Frame rate : 46.875 FPS (1024 SPF)
Compression mode : Lossy
Stream size : 7.16 MiB (0%)
Source stream size : 7.16 MiB (0%)
Language : English
Encoded date : UTC 2018-10-30 23:45:37
Tagged date : UTC 2018-10-30 23:45:37

Re: NASA zverejnila 8K video z ISS v úžasných detailoch!

aky to ma bitrate? 4g net od swanu to asi neda vo fullke na 4k telku co? LOL

Re: NASA zverejnila 8K video z ISS v úžasných detailoch!

kvalitne FHD/2K ripy maju okolo 15 Mbps v AVC/H264, original BluRay aj do 50-60 Mbps myslene ako CBR/ABR (opticke medium ma v skutocnosti VBR od 5-10 Mbps aj po 100 Mbps ked je treba)

kvalitne 4K ripy maju okolo 40-50 Mbps v AVC/H264 a 25-30 Mbps HEVC/H265, BluRay XL opticke media maju CBR/ABR myslim nad 100 Mbps, VBR od 20 Mbps aj po 200 Mbps ked je treba)

8K v HEVC/H265 by malo teoreticky v dost peknej kvalite stacit 70 Mbps, otazka je kolko ma dane video na YT

Aký má súvis 8K video so 4G od SWANu?

Re: NASA zverejnila 8K video z ISS v úžasných detailoch!

Na FHD monitore mi bezi na 8k plynule. Ryzen 1600 @ 3,8GHz zaťažene na 50% a RX580 zaťažene na 40%.

Re: NASA zverejnila 8K video z ISS v úžasných detailoch!

ešte sa tu nepreberaloto, že Zem je plochá a video zmanipulované DOGUĽATA :)

Poslať nový komentár

TOPlist